The Past 2018 x264 720p HD Esub Hindi GOPISAHI

  • Category Movies
  • Type Bollywood
  • Language Hindi
  • Total size 855.3 MB
  • Uploaded By PENDUDESI
  • Downloads 1870
  • Last checked 1 week ago
  • Date uploaded 1 week ago
  • Seeders 39
  • Leechers 18

The Past

DramaHorror

The movie chronicles the life of Simran, a young and upcoming novelist, who, one day, receives a call from Yuvraj, an owner of a publishing house. He asks Simran to write a book on a plot idea he has, for which, she, along with her younger sister, Alia, goes to their Lonavala bungalow. The arrival of the sisters triggers the onset of some deep, dark secrets of the past.

Infohash : 426C0A1B2460295DD9F04D178B3771BF881D9D26

https://www.gopisahi.xyz/



The Past 2018 x264 720p HD Esub Hindi GOPISAHI

Format : Matroska
Format version : Version 4
File size : 855 MiB
Duration : 2 h 1 min
Overall bit rate : 988 kb/s
Movie name : The Past 2018 GOPISAHI

Video
Format : AVC
Format/Info : Advanced Video Codec
Format profile : [email protected]
Format settings : CABAC / 12 Ref Frames
Format settings, CABAC : Yes
Format settings, Reference fra : 12 frames
Codec ID : V_MPEG4/ISO/AVC
Duration : 1 h 59 min
Bit rate : 899 kb/s
Width : 1 280 pixels
Height : 540 pixels
Display aspect ratio : 2.40:1
Frame rate mode : Constant
Frame rate : 24.000 FPS
Color space : YUV
Chroma subsampling : 4:2:0
Bit depth : 8 bits
Scan type : Progressive
Bits/(Pixel*Frame) : 0.054
Stream size : 771 MiB (90%)
Title : GOPISAHI
Writing library : x264 core 157 r2935 545de2f

Audio
Format : AAC LC
Duration : 1 h 59 min
Bit rate : 96.0 kb/s
Channel(s) : 2 channels
Channel layout : L R
Sampling rate : 48.0 kHz
Frame rate : 46.875 FPS (1024 SPF)
Compression mode : Lossy
Delay relative to video : -21 ms
Stream size : 82.2 MiB (10%)
Title : GOPISAHI
Language : Hindi

Text
Language : English





Files:

  • The Past 2018 x264 720p HD Esub Hindi GOPISAHI.mkv (855.3 MB)

Comments

Code:

  • udp://tracker.coppersurfer.tk:6969/announce
  • udp://tracker.opentrackr.org:1337/announce
  • udp://explodie.org:6969/announce
  • udp://9.rarbg.to:2790/announce
  • udp://bt.xxx-tracker.com:2710/announce
  • udp://tracker.internetwarriors.net:1337/announce
  • udp://tracker.openbittorrent.com:80/announce
  • udp://tracker.tiny-vps.com:6969/announce
  • udp://open.demonii.si:1337/announce
  • udp://tracker.torrent.eu.org:451/announce
  • udp://tracker.pirateparty.gr:6969/announce
  • udp://ipv4.tracker.harry.lu:80/announce
  • udp://tracker.cyberia.is:6969/announce
  • udp://9.rarbg.to:2790/announce