Seeed - BAM BAM (2019) [24bit Hi-Res]

  • Category Music
  • Type Lossless
  • Language English
  • Total size 386.4 MB
  • Uploaded By was95was
  • Downloads 74
  • Last checked 10 hours ago
  • Date uploaded 4 days ago
  • Seeders 4
  • Leechers 3

Infohash : AFBDA2FAB8DB8750BF24C2E9F29F52F7F0585AB4



Quality-Lossless
Release-2019
Duration-00:33:47
File Size-405 MB
Genre-Pop
Cover Size-1280px

----------------------------------------------------------------------------------------------
Analyzed: BAM BAM / Artist: Seeed
----------------------------------------------------------------------------------------------
DR Peak RMS Duration Title [codec]
----------------------------------------------------------------------------------------------
DR6 -0.00 dB -7.67 dB 3:46 01 - Ticket [flac]
DR7 -0.00 dB -8.54 dB 3:12 02 - Lass sie gehn [flac]
DR6 -0.00 dB -7.43 dB 2:41 03 - G€LD [flac]
DR6 -0.00 dB -8.48 dB 3:49 04 - Immer bei Dir (feat. Trettmann) [flac]
DR6 -0.00 dB -8.39 dB 3:08 05 - Lass das Licht an (feat. Deichkind) [flac]
DR6 -0.00 dB -7.43 dB 3:37 06 - Sie is geladen (feat. Nura) [flac]
DR7 -0.00 dB -8.22 dB 3:24 07 - Love & Courvoisier (feat. Salsa 359) [flac]
DR6 -0.00 dB -8.23 dB 3:33 08 - Komm in mein Haus [flac]
DR7 -0.56 dB -10.05 dB 0:47 09 - Psycho Piano Interlude [flac]
DR6 -0.00 dB -7.40 dB 3:14 10 - No More Drama (alles Pech verbraucht) [flac]
DR7 -0.42 dB -10.55 dB 2:33 11 - What a Day [flac]
----------------------------------------------------------------------------------------------
Number of files: 11
Official DR value: DR6

Sampling rate: 44100 Hz
Average bitrate: 1585kbs
Bits per sample: 24 bit

Files:

Seeed - BAM BAM (2019) [24bit Hi-Res]
  • 01 - Ticket.flac (42.8 MB)
  • 02 - Lass sie gehn.flac (37.7 MB)
  • 03 - G€LD.flac (32.4 MB)
  • 04 - Immer bei Dir (feat. Trettmann).flac (42.6 MB)
  • 05 - Lass das Licht an (feat. Deichkind).flac (36.3 MB)
  • 06 - Sie is geladen (feat. Nura).flac (42.2 MB)
  • 07 - Love & Courvoisier (feat. Salsa 359).flac (38.4 MB)
  • 08 - Komm in mein Haus.flac (40.0 MB)
  • 09 - Psycho Piano Interlude.flac (8.3 MB)
  • 10 - No More Drama (alles Pech verbraucht).flac (37.2 MB)
  • 11 - What a Day.flac (28.3 MB)
  • cover.jpg (186.9 KB)
  • dr14.txt (1.4 KB)

There are currently no comments. Feel free to leave one :)

Code:

  • udp://tracker.piratepublic.com:1337/announce
  • udp://tracker.pirateparty.gr:6969/announce
  • udp://tracker.coppersurfer.tk:6969/announce
  • udp://tracker.leechers-paradise.org:6969/announce
  • udp://9.rarbg.com:2710/announce
  • http://p4p.arenabg.com:1337/announce
  • http://explodie.org:6969/announce
  • udp://tracker.opentrackr.org:1337/announce
  • udp://exodus.desync.com:6969/announce
  • udp://tracker.leechers-paradise.org:6969/announce
  • udp://tracker.zer0day.to:1337/announce
  • udp://open.demonii.si:1337/announce
  • udp://exodus.desync.com:6969/announce
  • udp://tracker.iamhansen.xyz:2000/announce