Ozzy Osbourne - Ozzmosis (1995) Flac

  • Category Music
  • Type Lossless
  • Language English
  • Total size 432.4 MB
  • Uploaded By was95was
  • Downloads 55
  • Last checked 6 hours ago
  • Date uploaded 4 days ago
  • Seeders 3
  • Leechers 0

Infohash : FF86A8D7395CA19C507800147DBA66659CC35B5C



Quality-Lossless
Release-1995
Duration-00:56:45
File Size-453 MB
Genre-Heavy Metal
Cover Size-1400px

----------------------------------------------------------------------------------------------
Analyzed: Ozzmosis / Artist: Ozzy Osbourne
----------------------------------------------------------------------------------------------
DR Peak RMS Duration Title [codec]
----------------------------------------------------------------------------------------------
DR7 -0.00 dB -7.91 dB 5:54 01 - Perry Mason [flac]
DR7 -0.00 dB -9.23 dB 4:56 02 - I Just Want You [flac]
DR7 -0.00 dB -8.99 dB 5:11 03 - Ghost Behind My Eyes [flac]
DR8 -0.00 dB -8.59 dB 6:29 04 - Thunder Underground [flac]
DR8 -0.00 dB -9.58 dB 6:09 05 - See You On The Other Side [flac]
DR8 -0.00 dB -9.76 dB 6:37 06 - Tomorrow [flac]
DR8 -0.00 dB -9.12 dB 5:12 07 - Denial [flac]
DR7 -0.00 dB -9.47 dB 4:51 08 - My Little Man [flac]
DR8 -0.00 dB -8.74 dB 6:33 09 - My Jekyll Doesn't Hide [flac]
DR7 -0.00 dB -10.94 dB 4:49 10 - Old L. A. Tonight [flac]
----------------------------------------------------------------------------------------------
Number of files: 10
Official DR value: DR8

Sampling rate: 44100 Hz
Average bitrate: 1021kbs
Bits per sample: 16 bit

Files:

Ozzy Osbourne - Ozzmosis (1995) Flac
  • 01 - Perry Mason.flac (44.3 MB)
  • 02 - I Just Want You.flac (36.8 MB)
  • 03 - Ghost Behind My Eyes.flac (37.7 MB)
  • 04 - Thunder Underground.flac (48.6 MB)
  • 05 - See You On The Other Side.flac (44.3 MB)
  • 06 - Tomorrow.flac (46.9 MB)
  • 07 - Denial.flac (38.3 MB)
  • 08 - My Little Man.flac (36.1 MB)
  • 09 - My Jekyll Doesn't Hide.flac (50.3 MB)
  • 10 - Old L. A. Tonight.flac (32.3 MB)
  • cover.jpg (1.9 MB)
  • dr14.txt (1.3 KB)
  • Scans
    • Cover Back.jpg (6.9 MB)
    • Cover Front.jpg (7.8 MB)

There are currently no comments. Feel free to leave one :)

Code:

  • udp://tracker.piratepublic.com:1337/announce
  • udp://tracker.pirateparty.gr:6969/announce
  • udp://tracker.coppersurfer.tk:6969/announce
  • udp://tracker.leechers-paradise.org:6969/announce
  • udp://9.rarbg.com:2710/announce
  • http://p4p.arenabg.com:1337/announce
  • http://explodie.org:6969/announce
  • udp://tracker.opentrackr.org:1337/announce
  • udp://exodus.desync.com:6969/announce
  • udp://tracker.leechers-paradise.org:6969/announce
  • udp://tracker.zer0day.to:1337/announce
  • udp://open.demonii.si:1337/announce
  • udp://exodus.desync.com:6969/announce
  • udp://tracker.iamhansen.xyz:2000/announce