Michaela Anne - Desert Dove (2019) [24-96]

  • Category Music
  • Type Lossless
  • Language English
  • Total size 884.7 MB
  • Uploaded By was95was
  • Downloads 101
  • Last checked 2 days ago
  • Date uploaded 4 days ago
  • Seeders 6
  • Leechers 0

Infohash : C28F01A5538FC8F116AFDF656FFCC1FB0B80D38B



Quality-Lossless
Release-2019
Duration-00:40:14
File Size-927 MB
Genre-Country
Cover Size-1400px

----------------------------------------------------------------------------------------------
Analyzed: Desert Dove / Artist: Michaela Anne
----------------------------------------------------------------------------------------------
DR Peak RMS Duration Title [codec]
----------------------------------------------------------------------------------------------
DR6 -0.33 dB -9.70 dB 3:12 01 - By Our Design [flac]
DR6 -0.69 dB -10.93 dB 4:05 02 - One Heart [flac]
DR7 -0.16 dB -9.64 dB 3:04 03 - I'm Not the Fire [flac]
DR7 -0.62 dB -9.83 dB 3:20 04 - Child of the Wind [flac]
DR8 -0.75 dB -10.79 dB 3:20 05 - Tattered, Torn and Blue (And Crazy) [flac]
DR6 -0.71 dB -10.99 dB 4:41 06 - Desert Dove [flac]
DR7 -0.55 dB -10.90 dB 3:29 07 - Run Away With Me [flac]
DR8 -0.70 dB -10.74 dB 3:39 08 - Two Fools [flac]
DR8 -0.57 dB -11.02 dB 3:33 09 - If I Wanted Your Opinion [flac]
DR6 -0.58 dB -10.37 dB 5:23 10 - Somebody New [flac]
DR10 -4.84 dB -18.10 dB 2:25 11 - Be Easy [flac]
----------------------------------------------------------------------------------------------
Number of files: 11
Official DR value: DR7

Sampling rate: 96000 Hz
Average bitrate: 3048kbs
Bits per sample: 24 bit

Files:

Michaela Anne - Desert Dove (2019) [24-96]
  • 01 - By Our Design.flac (70.7 MB)
  • 02 - One Heart.flac (87.9 MB)
  • 03 - I'm Not the Fire.flac (72.1 MB)
  • 04 - Child of the Wind.flac (75.1 MB)
  • 05 - Tattered, Torn and Blue (And Crazy).flac (75.9 MB)
  • 06 - Desert Dove.flac (101.1 MB)
  • 07 - Run Away With Me.flac (82.6 MB)
  • 08 - Two Fools.flac (80.3 MB)
  • 09 - If I Wanted Your Opinion.flac (79.5 MB)
  • 10 - Somebody New.flac (119.1 MB)
  • 11 - Be Easy.flac (40.1 MB)
  • cover.jpg (265.7 KB)
  • dr14.txt (1.4 KB)

There are currently no comments. Feel free to leave one :)

Code:

  • udp://tracker.piratepublic.com:1337/announce
  • udp://tracker.pirateparty.gr:6969/announce
  • udp://tracker.coppersurfer.tk:6969/announce
  • udp://tracker.leechers-paradise.org:6969/announce
  • udp://9.rarbg.com:2710/announce
  • http://p4p.arenabg.com:1337/announce
  • http://explodie.org:6969/announce
  • udp://tracker.opentrackr.org:1337/announce
  • udp://exodus.desync.com:6969/announce
  • udp://tracker.leechers-paradise.org:6969/announce
  • udp://tracker.zer0day.to:1337/announce
  • udp://open.demonii.si:1337/announce
  • udp://exodus.desync.com:6969/announce
  • udp://tracker.iamhansen.xyz:2000/announce