The.Death.Of.Dick.Long.2019.720p.WEBRip.x264.LLG

  • Category Movies
  • Type HD
  • Language English
  • Total size 745.3 MB
  • Uploaded By LifeLongg
  • Downloads 146
  • Last checked 1 day ago
  • Date uploaded 4 days ago
  • Seeders 8
  • Leechers 4

The Death of Dick Long

ComedyCrimeDrama

Dick died last night, and Zeke and Earl don’t want anybody finding out how. That’s too bad though, cause news travels fast in small-town Alabama.

Infohash : 9E71253F1BE0980F0CB910B282C0FC02122C5D3D

Quote:





******************************Thumbnail:**********************




******************************Screenshots:********************

Screenshot 1

Screenshot 2

Screenshot 3

Screenshot 4

Screenshot 5

Screenshot 6

Screenshot 7

Screenshot 8

Screenshot 9

Screenshot 0

***************************************************************
General
The.Death.Of.Dick.Long.2019.720p.WEBRip.x264.LLG.mp4
Format : MPEG-4
Format profile : Base Media
Codec ID : isom (isom/iso2/avc1/mp41)
File size : 729 MiB
Duration : 1 h 40 min
Overall bit rate mode : Variable
Overall bit rate : 1 016 kb/s
Writing application : Lavf57.83.100

Video
ID : 1
Format : AVC
Format/Info : Advanced Video Codec
Format profile : [email protected]
Format settings : CABAC / 1 Ref Frames
Format settings, CABAC : Yes
Format settings, Reference frames : 1 frame
Codec ID : avc1
Codec ID/Info : Advanced Video Coding
Duration : 1 h 40 min
Bit rate mode : Variable
Bit rate : 884 kb/s
Maximum bit rate : 2 700 kb/s
Width : 1 280 pixels
Height : 640 pixels
Display aspect ratio : 2.000
Frame rate mode : Constant
Frame rate : 23.976 (23976/1000) FPS
Color space : YUV
Chroma subsampling : 4:2:0
Bit depth : 8 bits
Scan type : Progressive
Bits/(Pixel*Frame) : 0.045
Stream size : 634 MiB (87%)
Codec configuration box : avcC

Audio
ID : 2
Format : AAC LC
Format/Info : Advanced Audio Codec Low Complexity
Codec ID : mp4a-40-2
Duration : 1 h 40 min
Bit rate mode : Constant
Bit rate : 128 kb/s
Channel(s) : 2 channels
Channel layout : L R
Sampling rate : 48.0 kHz
Frame rate : 46.875 FPS (1024 SPF)
Compression mode : Lossy
Stream size : 92.0 MiB (13%)
Default : Yes
Alternate group : 1


***************************************************************



Files:

The.Death.Of.Dick.Long.2019.720p.WEBRip.x264.LLG
  • Sample.mp4 (16.0 MB)
  • The.Death.Of.Dick.Long.2019.720p.WEBRip.x264.LLG.mp4 (729.3 MB)

There are currently no comments. Feel free to leave one :)

Code:

  • udp://tracker.openbittorrent.com:80/announce
  • udp://tracker.opentrackr.org:1337/announce
  • udp://exodus.desync.com:6969/announce
  • udp://tracker.coppersurfer.tk:6969/announce
  • udp://tracker.iamhansen.xyz:2000/announce
  • udp://tracker.opentrackr.org:1337/announce
  • udp://open.demonii.si:1337/announce
  • udp://tracker.pirateparty.gr:6969/announce