Dream Girl 2019 Hindi 720p cam rip x264 AAC { TaRa }.mkv

  • Category Movies
  • Type Bollywood
  • Language Hindi
  • Total size 1.2 GB
  • Uploaded By SkTara
  • Downloads 31754
  • Last checked 3 weeks ago
  • Date uploaded 3 weeks ago
  • Seeders 244
  • Leechers 52

Dream Girl

RomanceComedy

Infohash : E145C6754F83CA68A3E3299E78849A68305936F1


Dream Girl 2019 Hindi 720p Pre-DVD Rip x264 AAC { TaRa }.mkv


===================================================================
General
Complete name : Dream Girl 2019 Hindi 720p Pre-DVD Rip x264 AAC { TaRa }.mkv
Format : Matroska
Format version : Version 4
File size : 1.20 GiB
Duration : 2 h 2 min
Overall bit rate : 1 403 kb/s
===================================================================
Video
ID : 1
Format : AVC
Format/Info : Advanced Video Codec
Format profile : [email protected]
Format settings : CABAC / 4 Ref Frames
Format settings, CABAC : Yes
Format settings, Reference : 4 frames
Codec ID : V_MPEG4/ISO/AVC
Duration : 2 h 2 min
Bit rate : 1 284 kb/s
Width : 1 280 pixels
Height : 544 pixels
Display aspect ratio : 2.35:1
Frame rate mode : Constant
Frame rate : 29.970 (30000/1001) FPS
Color space : YUV
Chroma subsampling : 4:2:0
Bit depth : 8 bits
Scan type : Progressive
Bits/(Pixel*Frame) : 0.062
Stream size : 1.11 GiB (92%)
Title : .....::::: TaRa :::::.....
Language : Hindi
Default : Yes
Forced : No
===================================================================
Audio
ID : 2
Format : AAC LC
Format/Info : Advanced Audio Codec Low Complexity
Codec ID : A_AAC-2
Duration : 2 h 2 min
Bit rate : 109 kb/s
Channel(s) : 2 channels
Channel layout : L R
Sampling rate : 44.1 kHz
Frame rate : 43.066 FPS (1024 SPF)
Compression mode : Lossy
Delay relative to video : -10 ms
Stream size : 95.5 MiB (8%)
Title : .....::::: TaRa :::::.....
Language : Hindi
Default : Yes
Forced : No
===================================================================





























Files:

Dream Girl 2019 Hindi 720p Pre-DVD Rip x264 AAC { TaRa }.mkv
  • Torrent TaRa Digital Team.txt (0.7 KB)
  • Torrent TaRa Digital Team PC Info.nfo (6.5 KB)
  • MV5BNmUyMzU3Yjgt[email protected]._V1_QL50_SY1000_SX692_AL_.jpg (114.6 KB)
  • 70662792.jpg (379.2 KB)
  • Dream Girl 2019 Hindi 720p Pre-DVD Rip x264 AAC { TaRa }.mkv (1.2 GB)

Comments

Code:

  • udp://tracker.coppersurfer.tk:6969/announce
  • udp://tracker.leechers-paradise.org:6969/announce
  • udp://bt.xxx-tracker.com:2710/announce
  • udp://tracker.internetwarriors.net:1337/announce
  • udp://tracker.openbittorrent.com:80/announce
  • udp://explodie.org:6969/announce
  • udp://tracker.opentrackr.org:1337/announce
  • udp://tracker.tiny-vps.com:6969/announce
  • udp://open.demonii.si:1337/announce
  • udp://tracker.torrent.eu.org:451/announce
  • udp://tracker.pirateparty.gr:6969/announce
  • udp://ipv4.tracker.harry.lu:80/announce
  • udp://tracker.cyberia.is:6969/announce
  • udp://9.rarbg.to:2750/announce
  • udp://denis.stalker.upeer.me:6969/announce